» » Patrice Rushen - Prelusion

Patrice Rushen - Prelusion album flac

  • Performer: Patrice Rushen
  • Title: Prelusion
  • Size FLAC ver: 1909 mb
  • Country: US
  • Date of release: 1993
  • Style: Jazz-Funk
  • Other formats: AAC AIFF DMF AA WMA MMF AUD
  • Genre: Jazz
  • Rating: 4.4 of 5
Patrice Rushen - Prelusion album flac

Tracklist

1 Shortie's Portion 8:44
2 7/73 12:32
3 Haw-Right Now 8:03
4 Traverse 10:54
5 Puttered Bopcorn 4:17

Companies, etc.

  • Manufactured By – Victor Entertainment, Inc.
  • Distributed By – Victor Entertainment, Inc.
  • Licensed From – Fantasy Records, Inc.

Credits

  • Drums – Ndugu
  • Electric Bass – Tony Dumas
  • Flute, Alto Flute, Soprano Saxophone – Hadley Caliman
  • Percussion – Kenneth Nash
  • Piano, Electric Piano, Clavinet, Synthesizer – Patrice Rushen
  • Supervised By – 荏開津広*
  • Tenor Saxophone – Joe Henderson
  • Trombone – George Bohanon
  • Trumpet, Flugelhorn – Oscar Brashear

Notes

Recorded in August 1974 at the Fantasy Studios, Berkeley, CA.
Japanese release. Part of Prestige's DJ's Choice / Dancing To Jazz Collection Original series. Comes in standard jewel case.

Barcode and Other Identifiers

  • Barcode: 4988002276011
  • Rights Society: JASRAC

Other versions

Category Artist Title (Format) Label Category Country Year
P 10089 Patrice Rushen Prelusion ‎(LP, Album) Prestige P 10089 US 1974
P 10089 Patrice Rushen Prelusion ‎(LP, Album) Prestige P 10089 US 1974
P 10089-DJ Patrice Rushen Prelusion ‎(LP, Album, Promo) Prestige P 10089-DJ US 1974
P 10089 Patrice Rushen Prelusion ‎(LP, Album, RE) Prestige P 10089 US Unknown
LPJ-80033 Patrice Rushen Prelusion ‎(LP, Album, Promo) Prestige LPJ-80033 Japan 1974




Request an album send to friend. Patrice Rushen - Prelusion.

Complete your Patrice Rushen collection. Patrice Rushen ‎– Prelusion. Genre: Jazz, Funk, Soul. Style: Jazz-Funk, Fusion. Prelusion ‎(LP, Album, Promo).

By: Patrice Rushen (1974, Jazz). More albums from Patrice Rushen: Before The Dawn by Patrice Rushen. Now by Patrice Rushen. Shout It Out by Patrice Rushen. Posh by Patrice Rushen. Straight From The Heart by Patrice Rushen. Watch Out! by Patrice Rushen. Patrice by Patrice Rushen. Signature by Patrice Rushen. View all albums . Prelusion. By: Patrice Rushen (1974, Jazz). 1. Shortie’s Portion.

Before the Dawn was the second album by jazz/R&B singer Patrice Rushen. While 1974's Prelusion was essentially a straight-ahead record with fusion references, 1975's Before the Dawn album was essentially a fusion album. With this album Rushen brings a fusion of R&B, pop, and rock elements to her jazz foundation. The album included the song "What's the Story," which was the only song that did not have a jazz artist's sound; it has a more funk tune which features singer Josie James

In stock now for same day shipping. Home Jazz . Prestige US. Patrice RUSHEN. Format: LP Cat: 10089 Released: 01 Jan 90 Genre: Jazz.

Prelusion Patrice Rushen. This album has an average beat per minute of BPM (slowest/fastest tempos:, BPM).

Patrice Louise Rushen (born September 30, 1954) is an American jazz pianist and R&B singer. She is also a composer, record producer, t, songwriter, and music director. Her 1982 single, "Forget Me Nots", received a Grammy Award nomination for Best Female R&B Vocal Performance. Rushen had great success on the R&B and dance charts. Haven't You Heard" went to number 7 on the R&B charts, with "Forget Me Nots" as her only top 40 pop hit in the United States.

Prelusion was the debut album from jazz musician and later R & B recording artist Patrice Rushen. The first of three albums she would record with Prestige Records, the album was mainly Instrumental jazz which was her main focus as an artist before focusing on popular R & B recordings four years later after signing with Elektra Records The album only leaves people to speculate on . .

Rushen is heard on the Prelusion album heading a septet that includes tenor-saxophonist Joe Henderson (the most memorable soloist), trumpeter Oscar Brashear, trombonist George Bohanon and Hadley Caliman on reeds; the music is essentially advanced hard bop with touches of fusion. The later date has a similar group (without Henderson) and with guest spots for flutist Hubert Laws and guitarist Lee Ritenour.

Play full-length songs from Prelusion/Before The Dawn by Patrice Rushen on your phone, computer and home audio system with Napster. Prelusion/Before The Dawn.

Comments (1)

Lynnak
foobar2000 1.3.17 / Dynamic Range Meter 1.1.1log date: 2019-02-11 20:21:24--------------------------------------------------------------------------------Analyzed: Patrice Rushen / Prelusion [JP 1993 CD]--------------------------------------------------------------------------------DR Peak RMS Duration Track--------------------------------------------------------------------------------DR13 -1.24 dB -18.26 dB 8:46 01-Shortie's PortionDR16 -2.16 dB -22.80 dB 12:35 02-7/73DR13 -4.37 dB -20.47 dB 8:05 03-How Right NowDR14 -6.28 dB -23.55 dB 10:56 04-TraverseDR14 -4.22 dB -21.55 dB 4:17 05-Puttered Bopcorn--------------------------------------------------------------------------------Number of tracks: 5Official DR value: DR14Samplerate: 44100 HzChannels: 2Bits per sample: 16Bitrate: 906 kbpsCodec: ALAC================================================================================

Related to Patrice Rushen - Prelusion: